Hi

Look at this:
Code:
rj45@Pinguinito:/media/hda9/eMule$ ffmpeg -y -i /media/hda9/eMule/Reincidentes-Videoclip_Vicio.mpg -title "Reincidente-Vicio" -bitexact -vcodec mpeg4 -s 320x240 -r 29.97 -b 1500 -acodec aac -ac 2 -ar 24000 -ab 64 -f psp /media/hda9/eMule/M4V00019.mp4
ffmpeg version CVS, build 3276800, Copyright (c) 2000-2004 Fabrice Bellard
  configuration:  --build i486-linux-gnu --enable-gpl --enable-pp --enable-zlib --enable-vorbis --enable-libogg --enable-theora --enable-a52 --enable-dts --enable-dc1394 --enable-libgsm --disable-debug --prefix=/usr
  built on Sep 29 2005 03:25:16, gcc: 4.0.2 20050808 (prerelease) (Ubuntu 4.0.1-4ubuntu8)
Input #0, mpeg, from '/media/hda9/eMule/Reincidentes-Videoclip_Vicio.mpg':
  Duration: 00:03:13.6, start: 0.000000, bitrate: 1401 kb/s
  Stream #0.0[0x1c0]: Audio: mp2, 44100 Hz, stereo, 224 kb/s
  Stream #0.1[0x1e0]: Video: mpeg1video, yuv420p, 352x288, 25.00 fps, 1152 kb/s
Unable for find a suitable output format for 'mpeg4'
I copy exactly as a blog (and I understand it)

What happened??

Thanks