Find the answer to your Linux question:
Results 1 to 4 of 4
i am using this command line ffmpeg -i test.ogg -acodec mp2 -ab 192k test.mp3 but if use acodec mp3 it tells me abed@abed-laptop:~/Desktop$ ffmpeg -i test.ogg -acodec mp3 -ab 192k ...
Enjoy an ad free experience by logging in. Not a member yet? Register.
  1. #1
    Linux User kmitnick's Avatar
    Join Date
    May 2008
    Location
    Jordan - Amman
    Posts
    329

    question about ffmpeg


    i am using this command line
    ffmpeg -i test.ogg -acodec mp2 -ab 192k test.mp3
    but if use acodec mp3 it tells me
    abed@abed-laptop:~/Desktop$ ffmpeg -i test.ogg -acodec mp3 -ab 192k test.mp3
    FFmpeg version SVN-rUNKNOWN, Copyright (c) 2000-2007 Fabrice Bellard, et al.
    configuration: --enable-gpl --enable-pp --enable-swscaler --enable-pthreads --enable-libvorbis --enable-libtheora --enable-libogg --enable-libgsm --enable-dc1394 --disable-debug --enable-shared --prefix=/usr
    libavutil version: 1d.49.3.0
    libavcodec version: 1d.51.38.0
    libavformat version: 1d.51.10.0
    built on Mar 12 2008 14:31:53, gcc: 4.2.3 (Ubuntu 4.2.3-2ubuntu4)
    Input #0, ogg, from 'test.ogg':
    Duration: 00:06:54.2, start: 0.661769, bitrate: 116 kb/s
    Stream #0.0: Audio: vorbis, 44100 Hz, stereo, 160 kb/s
    Output #0, mp2, to 'test.mp3':
    Stream #0.0: Audio: 0x0000, 44100 Hz, stereo, 192 kb/s
    Stream mapping:
    Stream #0.0 -> #0.0
    Unsupported codec for output stream #0.0
    so wut's wrong???
    Dual Booting Ubuntu 10.04, Windows 7

    Toshiba Satellite A200-1M5, Duo Core 2.0 Ghz, 1 Gigs RAM, 256 Intel Card

    You are registered Linux user number 490788
    Happy Linuxing

  2. #2
    Linux User kmitnick's Avatar
    Join Date
    May 2008
    Location
    Jordan - Amman
    Posts
    329
    anyone!!!!!!!!!!
    Dual Booting Ubuntu 10.04, Windows 7

    Toshiba Satellite A200-1M5, Duo Core 2.0 Ghz, 1 Gigs RAM, 256 Intel Card

    You are registered Linux user number 490788
    Happy Linuxing

  3. #3
    Linux Guru
    Join Date
    Nov 2004
    Posts
    6,110
    Can you play other mp3 files with ffmpeg? Just to check whether the problem is with the encoding or playback.

  4. #4
    Linux User kmitnick's Avatar
    Join Date
    May 2008
    Location
    Jordan - Amman
    Posts
    329
    the problem is that the files executed if i don't use -acodec but and the file is *.mp3 but when i run on my cellphone it tells me unable to play media so wut's wrong???
    Dual Booting Ubuntu 10.04, Windows 7

    Toshiba Satellite A200-1M5, Duo Core 2.0 Ghz, 1 Gigs RAM, 256 Intel Card

    You are registered Linux user number 490788
    Happy Linuxing

Posting Permissions

  • You may not post new threads
  • You may not post replies
  • You may not post attachments
  • You may not edit your posts
  •